Сегодня идет свободное скачивание без начисления Download

Андрей Журавлев. | Мастер-класс. Цветокоррекция по числам. (2013) WEBRip [H.264]

Ответить на тему
 
Автор
Сообщение

moralis ®

Пол:

Стаж: 3 года 8 месяцев

Сообщений: 1686

Торрент-статистика

Пост 03-Апр-2016 14:30

[Цитировать]

Мастер-класс. Цветокоррекция по числам. - Автор (режиссер): Андрей Журавлев.
Жанр: Обучающее видео
Описание:
Как формируется цвет из яркостей красного, зеленого и синего источников света. Как быстрее оценить имеющийся в изображении оттенок. На какие нюансы нужно обратить внимание. Как цвет зависит от профиля рабочего пространства. В чем плюсы и минусы оценки цвета по значениям RGB, CMYK и Lab. Об этом и расскажет известный специалист по цветокоррекции и допечатной подготовке, преподаватель Profileschool, Андрей Журавлев.
Продолжительность: 02:17:09
Качество видео: WEBRip
Видео: AVC/H.264, 1812х1080, ~1671 Кбит/сек
Аудио: AAC, 2 ch, 126 Кбит/сек, CBR

Mediainfo:

Код:
Полное имя                               : D:\Adobe\Фотошоп\Видео-Ютуб\Журавлев Алексей\Мастер-класс. Цветокоррекция по числам. Андрей Журавлев.mp4
Формат                                   : MPEG-4
Профиль формата                          : Base Media
Идентификатор кодека                     : isom (isom/iso2/avc1/mp41)
Размер файла                             : 1,73 Гбайт
Продолжительность                        : 2 ч. 17 м.
Общий поток                              : 1804 Кбит/сек
Программа кодирования                    : Lavf55.22.100
Идентификатор                            : 1
Формат                                   : AVC
Формат/Информация                        : Advanced Video Codec
Профиль формата                          : High@L4
Параметр CABAC формата                   : Да
Параметр ReFrames формата                : 3 кадра
Идентификатор кодека                     : avc1
Идентификатор кодека/Информация          : Advanced Video Coding
Продолжительность                        : 2 ч. 17 м.
Битрейт                                  : 1671 Кбит/сек
Ширина                                   : 1812 пикселей
Высота                                   : 1080 пикселей
Соотношение сторон                       : 5:3
Режим частоты кадров                     : Постоянный
Частота кадров                           : 30,000 кадров/сек
Цветовое пространство                    : YUV
Субдискретизация насыщенности            : 4:2:0
Битовая глубина                          : 8 бит
Тип развёртки                            : Прогрессивная
Бит/(Пиксели*Кадры)                      : 0.028
Размер потока                            : 1,60 Гбайт (93%)
Идентификатор                            : 2
Формат                                   : AAC
Формат/Информация                        : Advanced Audio Codec
Профиль формата                          : LC
Идентификатор кодека                     : 40
Продолжительность                        : 2 ч. 17 м.
Вид битрейта                             : Постоянный
Битрейт                                  : 126 Кбит/сек
Каналы                                   : 2 канала
Расположение каналов                     : Front: L R
Частота                                  : 44,1 КГц
Частота кадров                           : 43,066 кадра/сек (1024 spf)
Метод сжатия                             : С потерями
Размер потока                            : 123 Мбайт (7%)
Default                                  : Да
Alternate group                          : 1
Скриншоты:
       
Вне форума [Профиль] [ЛС]
Похожие темы
Форум Тема Автор Торрент Отв. Посл. сообщение
./templates/default/images/folder_dl.gif Историческая литература Андрей Болотов | Жизнь и приключения Андрея Болотова, описанныя самим им для своих потомков. Том 1-3 (2013) [PDF] Omen
1 | 0

0 | 1290

6

2015-01-01 15:06
Omen Последнее
./templates/default/images/folder_dl.gif Обучающее видео [Андрей Козлов] Интерьер в 3ds Max от и до [2014, RUS] Omen
1 | 0

0 | 961

12

2015-05-20 15:00
Omen Последнее
./templates/default/images/folder_dl.gif Обучающее видео Андрей Зейгарник | Фотография как современное искусство: натюрморт (2017) PCRec Omen
1 | 0

0 | 483

5

2016-03-09 03:58
Omen Последнее
./templates/default/images/folder_dl.gif Обучающее видео Андрей Зейгарник | Композиция и психология восприятия (2016) PCRec Omen
1 | 0

0 | 1819

31

2016-03-09 21:43
Omen Последнее
./templates/default/images/folder_dl.gif Разное Мезенцев Владимир Андреевич - Атом и атомная энергия [1954, DjVu, RUS] Omen
0 | 2

0 | 876

0

2016-12-05 01:00
Omen Последнее
./templates/default/images/folder_dl.gif Фантастика, фэнтези, ужасы, мистика Андрей Ливадный | Нейр (2017) [MP3] }{@R0N
1 | 0

0 | 8944

9

2017-09-19 15:32
}{@R0N Последнее
./templates/default/images/folder_dl.gif Компьютерная литература Андрей Сухов | Microsoft Word 2016 - Шаг за Шагом [+files] (2017) [PDF] }{@R0N
2 | 0

0 | 586

14

2018-04-24 09:17
}{@R0N Последнее
./templates/default/images/folder_dl.gif Фантастика, фэнтези, ужасы, мистика Андрей Лобурец | Хроники Лешего. Книга первая. Новобранец (2018) [FB2] }{@R0N
1 | 0

0 | 912

11

2018-05-02 21:53
}{@R0N Последнее
./templates/default/images/folder_dl.gif Фантастика, фэнтези, ужасы, мистика Андрей Васильев | Знаки ночи (2018) [MP3] }{@R0N
1 | 0

0 | 471

7

2018-06-15 13:46
}{@R0N Последнее
./templates/default/images/folder_dl.gif Техническая и научно-популярная литература Андрей Финкель | Правила дорожного движения в рисунках (2018) [PDF] }{@R0N
1 | 0

0 | 530

11

2018-07-23 11:56
}{@R0N Последнее
Показать сообщения:    
Ответить на тему

Текущее время: Сегодня 16:34

Часовой пояс: GMT + 3



Вы не можете начинать темы
Вы не можете отвечать на сообщения
Вы не можете редактировать свои сообщения
Вы не можете удалять свои сообщения
Вы не можете голосовать в опросах
Вы не можете прикреплять файлы к сообщениям
Вы не можете скачивать файлы


 
 
 
 
Pierre Arditi | Alita: Savaş Meleği Full HD Türkçe Dublaj 1080p izle | Bucky O’Hare