Сегодня идет свободное скачивание без начисления Download

Андрей Якимов | Методы содержания пчёл в Владимирских ульях (2016) HDTVRip

Ответить на тему
 
Автор
Сообщение

}{@R0N ®

Стаж: 3 года 2 месяца

Сообщений: 7408

Торрент-статистика

Пост 22-Апр-2017 21:42

[Цитировать]

Методы содержания пчёл в Владимирских ульях - Автор (режиссер): Андрей Якимов
Жанр: пчеловодство
Описание:
Владимирские ульи. Цель всей затеи.
Получение высококачественной продукции пчеловодства. Без подкормок сахарным сиропом, без лечения вредными препаратами пчёл и выбор экологически чистой местности под пасеку.
Для этого:
- Создание и отработка метода пчеловодства доступного большинству людей.
- Пчеловодство основанное на местной пчеле, для нас среднерусской.
- Возможность в удовольствие и с интересом заниматься пчеловодством в Средней полосе России и Северных регионах.
- Пчеловодство как Бизнес в Средней полосе России с минимальным вмешательством в жизнь пчёл.
- У нас холодно и говорят, что пчёлам не очень у нас. Но мы умные и сделаем так, чтобы пчеле и пчеловодам, а особенно соседям пчеловодов жилось хорошо.
Содержание:
-Пасека-Легко создать, Легко обслуживать
-Методы содержания пчёл во Владимирских ульях Якимова
-Бизнес в пчеловодстве или Пасека доход круглый год
-Минипасека на основе Апидомика или "Сон на ульях"
-Владимирский улей- Технология изготовления и размеры
-Практика работы на пасеке
Продолжительность: 25:27:44
Качество видео: HDTVRip
Видео: AVC/H.264, 960х720, ~2010 Кбит/сек
Аудио: AAC, 2 ch, 126 Кбит/сек

Mediainfo:

Общее
Полное имя : \Пчеловодство во Владимирских ульях\Методы содержания пчёл в Владимирских ульях Якимова\1 Вступление.mp4
Формат : MPEG-4
Профиль формата : Base Media
Идентификатор кодека : isom (isom/iso2/avc1/mp41)
Размер файла : 252 Мбайт
Продолжительность : 16 м. 27 с.
Общий поток : 2145 Кбит/сек
Программа кодирования : Lavf55.22.100
Видео
Идентификатор : 1
Формат : AVC
Формат/Информация : Advanced Video Codec
Профиль формата : [url=mailto:Main@L3.1]Main@L3.1[/url]
Параметр CABAC формата : Да
Параметр ReFrames формата : 3 кадра
Идентификатор кодека : avc1
Идентификатор кодека/Информация : Advanced Video Coding
Продолжительность : 16 м. 26 с.
Битрейт : 2010 Кбит/сек
Ширина : 960 пикселей
Высота : 720 пикселей
Соотношение сторон : 4:3
Режим частоты кадров : Переменный
Частота кадров : 29,788 кадров/сек
Минимальная частота кадров : 29,772 кадров/сек
Максимальная частота кадров : 29,791 кадров/сек
Цветовое пространство : YUV
Субдискретизация насыщенности : 4:2:0
Битовая глубина : 8 бит
Тип развёртки : Прогрессивная
Бит/(Пиксели*Кадры) : 0.098
Размер потока : 237 Мбайт (94%)
Аудио
Идентификатор : 2
Формат : AAC
Формат/Информация : Advanced Audio Codec
Профиль формата : LC
Идентификатор кодека : 40
Продолжительность : 16 м. 27 с.
Вид битрейта : Постоянный
Битрейт : 126 Кбит/сек
Каналы : 2 канала
Расположение каналов : Front: L R
Частота : 44,1 КГц
Частота кадров : 43,066 кадра/сек (1024 spf)
Метод сжатия : С потерями
Размер потока : 14,8 Мбайт (6%)
Default : Да
Alternate group : 1
Скриншоты:
       
Вне форума [Профиль] [ЛС]
Похожие темы
Форум Тема Автор Торрент Отв. Посл. сообщение
./templates/default/images/folder_dl.gif Историческая литература Андрей Болотов | Жизнь и приключения Андрея Болотова, описанныя самим им для своих потомков. Том 1-3 (2013) [PDF] Omen
1 | 0

0 | 1290

6

2015-01-01 15:06
Omen Последнее
./templates/default/images/folder_dl.gif Обучающее видео [Андрей Козлов] Интерьер в 3ds Max от и до [2014, RUS] Omen
1 | 0

0 | 961

12

2015-05-20 15:00
Omen Последнее
./templates/default/images/folder_dl.gif Обучающее видео Андрей Зейгарник | Фотография как современное искусство: натюрморт (2017) PCRec Omen
1 | 0

0 | 483

5

2016-03-09 03:58
Omen Последнее
./templates/default/images/folder_dl.gif Обучающее видео Андрей Зейгарник | Композиция и психология восприятия (2016) PCRec Omen
1 | 0

0 | 1819

31

2016-03-09 21:43
Omen Последнее
./templates/default/images/folder_dl.gif Обучающее видео Андрей Журавлев. | Мастер-класс. Цветокоррекция по числам. (2013) WEBRip [H.264] moralis
1 | 0

0 | 2024

36

2016-04-03 14:30
moralis Последнее
./templates/default/images/folder_dl.gif Разное Мезенцев Владимир Андреевич - Атом и атомная энергия [1954, DjVu, RUS] Omen
0 | 2

0 | 876

0

2016-12-05 01:00
Omen Последнее
./templates/default/images/folder_dl.gif Фантастика, фэнтези, ужасы, мистика Андрей Ливадный | Нейр (2017) [MP3] }{@R0N
1 | 0

0 | 8944

9

2017-09-19 15:32
}{@R0N Последнее
./templates/default/images/folder_dl.gif Компьютерная литература Андрей Сухов | Microsoft Word 2016 - Шаг за Шагом [+files] (2017) [PDF] }{@R0N
2 | 0

0 | 586

14

2018-04-24 09:17
}{@R0N Последнее
./templates/default/images/folder_dl.gif Фантастика, фэнтези, ужасы, мистика Андрей Лобурец | Хроники Лешего. Книга первая. Новобранец (2018) [FB2] }{@R0N
1 | 0

0 | 912

11

2018-05-02 21:53
}{@R0N Последнее
./templates/default/images/folder_dl.gif Фантастика, фэнтези, ужасы, мистика Андрей Васильев | Знаки ночи (2018) [MP3] }{@R0N
1 | 0

0 | 471

7

2018-06-15 13:46
}{@R0N Последнее
Показать сообщения:    
Ответить на тему

Текущее время: Сегодня 16:32

Часовой пояс: GMT + 3



Вы не можете начинать темы
Вы не можете отвечать на сообщения
Вы не можете редактировать свои сообщения
Вы не можете удалять свои сообщения
Вы не можете голосовать в опросах
Вы не можете прикреплять файлы к сообщениям
Вы не можете скачивать файлы


 
 
 
 
October 21, 2018December 9, 2018 | Diane Kruger | Religioso